Hey Guys ! Ads Are The Worst, Right? But Ads Give Us Revenue To Run The Site And For Other Stuff Like Encoding Severs/Seedboxes. Please Disable Yours Ad Blocker For This Site .This Will Consider Great Help.Thanks
Home » DJ Duvvada Jagannadham 2017 1080p Hindi Dubbed WEB-HD Team Edm 2.4GB

DJ Duvvada Jagannadham 2017 1080p Hindi Dubbed WEB-HD Team Edm 2.4GB

Duvvada Jagannadham (2017)
152 min|Action, Comedy, Thriller|June 23, 2017
5.4Rating: 5.4 / 10 from 1,317 users
A vigilante takes on land mafia when his uncle is killed.
General 

Format                                   : MPEG-4
Format profile                           : Base Media
Codec ID                                 : isom (isom/iso2/avc1/mp41)
File size                                : 2.46 GiB
Duration                                 : 2 h 1 min
Overall bit rate mode                    : Variable
Overall bit rate                         : 2 906 kb/s

Video 

ID                                       : 1
Format                                   : AVC
Format/Info                              : Advanced Video Codec
Format profile                           : [email protected]
Format settings                          : CABAC / 2 Ref Frames
Format settings, CABAC                   : Yes
Format settings, RefFrames               : 2 frames
Codec ID                                 : avc1
Codec ID/Info                            : Advanced Video Coding
Duration                                 : 2 h 1 min
Bit rate                                 : 2 777 kb/s
Width                                    : 1 920 pixels
Height                                   : 1 080 pixels
Display aspect ratio                     : 16:9
Frame rate mode                          : Constant
Frame rate                               : 25.000 FPS
Color space                              : YUV
Chroma subsampling                       : 4:2:0
Bit depth                                : 8 bits
Scan type                                : Progressive
Bits/(Pixel*Frame)                       : 0.054
Stream size                              : 2.35 GiB (96%)

Audio 

ID                                       : 2
Format                                   : AAC
Format/Info                              : Advanced Audio Codec
Format profile                           : LC
Codec ID                                 : mp4a-40-2
Duration                                 : 2 h 1 min
Bit rate mode                            : Variable
Bit rate                                 : 126 kb/s
Channel(s)                               : 2 channels
Channel positions                        : Front: L R
Sampling rate                            : 44.1 kHz
Frame rate                               : 43.066 FPS (1024 SPF)
Compression mode                         : Lossy
Stream size                              : 109 MiB (4%)
Default                                  : Yes

ss










d

Torrent


DOWNLOAD LINK

ss
d

DOWNLOAD LINK

Loading...
Nov 20, 2017 - Posted by --: Skyler :-- - No Comments

Leave a Reply

Your email address will not be published.