Hey Guys ! Ads Are The Worst, Right? But Ads Give Us Revenue To Run The Site And For Other Stuff Like Encoding Severs/Seedboxes. Please Disable Yours Ad Blocker For This Site .This Will Consider Great Help.Thanks
Home » Jurassic World 2015 1080p Bluray Hindi Dubbed DTS Skyler Team Edm 4.00 GB

Jurassic World 2015 1080p Bluray Hindi Dubbed DTS Skyler Team Edm 4.00 GB

General 

Format : Matroska
Format version : Version 4 / Version 2
File size : 3.99 GiB
Duration : 2 h 4 min
Overall bit rate : 4 590 kb/s
Movie name : Jurassic World 2015 1080p Bluray Hindi Dubbed DTS Skyler
Encoded date : UTC 2017-11-24 10:10:18

Video 

ID : 1
Format : AVC
Format/Info : Advanced Video Codec
Format profile : [email protected]
Format settings : 1 Ref Frames
Format settings, CABAC : No
Format settings, RefFrames : 1 frame
Codec ID : V_MPEG4/ISO/AVC
Duration : 2 h 4 min
Bit rate : 3 820 kb/s
Width : 1 920 pixels
Height : 900 pixels
Display aspect ratio : 2.133
Frame rate mode : Constant
Frame rate : 23.976 (24000/1001) FPS
Color space : YUV
Chroma subsampling : 4:2:0
Bit depth : 8 bits
Scan type : Progressive
Bits/(Pixel*Frame) : 0.092
Stream size : 3.32 GiB (83%)

Audio 

ID : 2
Format : DTS
Format/Info : Digital Theater Systems
Codec ID : A_DTS
Duration : 2 h 4 min
Bit rate mode : Constant
Bit rate : 768 kb/s
Channel(s) : 6 channels
Channel positions : Front: L C R, Side: L R, LFE
Sampling rate : 48.0 kHz
Frame rate : 93.750 FPS (512 SPF)
Bit depth : 24 bits
Compression mode : Lossy
Delay relative to video : -5 ms
Stream size : 683 MiB (17%)
Title : ORG DTS 6 CH SKYLER
Language : Hindi
Default : Yes
Forced : No

ss










d


TORRENT


GOOGLE DRIVE


DOWNLOAD LINK


Loading...
Nov 24, 2017 - Posted by --: Skyler :-- - No Comments

Leave a Reply

Your email address will not be published.