Hey Guys ! Ads Are The Worst, Right? But Ads Give Us Revenue To Run The Site And For Other Stuff Like Encoding Severs/Seedboxes. Please Disable Yours Ad Blocker For This Site .This Will Consider Great Help.Thanks
Home » King Kong 2005 EXTENDED.CUT 1080p Bluray Dual Audio Hin5.1+EngDTS Esub Skyler Team Edm 6.9 GB

King Kong 2005 EXTENDED.CUT 1080p Bluray Dual Audio Hin5.1+EngDTS Esub Skyler Team Edm 6.9 GB

King Kong (2005)
187 min|Action, Adventure, Drama, Romance|December 14, 2005
7,2Rating: 7,2 / 10 from 343 148 users
In 1933 New York, an overly ambitious movie producer coerces his cast and hired ship crew to travel to the mysterious Skull Island, where they encounter Kong, a giant ape who is immediately smitten with leading lady Ann Darrow.

::: Information ::: 

General 

Format : Matroska
Format version : Version 4 / Version 2
File size : 6.86 GiB
Duration : 3 h 20 min
Overall bit rate : 4 907 kb/s
Movie name : King Kong 2005 1080p Dual Audio Hin+Eng Esub Skyler
Encoded date : UTC 2017-11-20 08:27:37
Writing application : mkvmerge v17.0.0 (‘Be Ur Friend’) 64-bit

Video 

ID : 1
Format : AVC
Format/Info : Advanced Video Codec
Format profile : [email protected]
Format settings : 1 Ref Frames
Format settings, CABAC : No
Format settings, RefFrames : 1 frame
Codec ID : V_MPEG4/ISO/AVC
Duration : 3 h 20 min
Bit rate : 3 210 kb/s
Width : 1 920 pixels
Height : 816 pixels
Display aspect ratio : 2.35:1
Frame rate mode : Constant
Frame rate : 23.976 (24000/1001) FPS
Color space : YUV
Chroma subsampling : 4:2:0
Bit depth : 8 bits
Scan type : Progressive
Bits/(Pixel*Frame) : 0.085
Stream size : 4.51 GiB (66%)

Audio #1 

ID : 2
Format : AAC
Format/Info : Advanced Audio Codec
Format profile : LC
Codec ID : A_AAC-2
Duration : 3 h 20 min
Bit rate : 168 kb/s
Channel(s) : 6 channels
Channel positions : Front: L C R, Side: L R, LFE
Sampling rate : 48.0 kHz
Frame rate : 46.875 FPS (1024 SPF)
Compression mode : Lossy
Delay relative to video : -5 ms
Stream size : 240 MiB (3%)
Title : 5.1 Skyler
Language : Hindi
Default : Yes
Forced : No

Audio #2 

ID : 3
Format : DTS
Format/Info : Digital Theater Systems
Codec ID : A_DTS
Duration : 3 h 20 min
Bit rate mode : Constant
Bit rate : 1 509 kb/s
Channel(s) : 6 channels
Channel positions : Front: L C R, Side: L R, LFE
Sampling rate : 48.0 kHz
Frame rate : 93.750 FPS (512 SPF)
Bit depth : 24 bits
Compression mode : Lossy
Delay relative to video : -5 ms
Stream size : 2.11 GiB (31%)
Title : ORG Bluray DTS Skyler
Language : English
Default : No
Forced : No

Text 

ID : 4
Format : UTF-8
Codec ID : S_TEXT/UTF8
Codec ID/Info : UTF-8 Plain Text
Duration : 2 h 56 min
Bit rate : 31 b/s
Count of elements : 1507
Stream size : 40.3 KiB (0%)
Title : Skyler
Language : English
Default : Yes
Forced : No

ss










d

GOOLE DRIVE LINK


DOWNLOAD LINK

Loading...
Nov 20, 2017 - Posted by --: Skyler :-- - No Comments

Leave a Reply

Your email address will not be published.