Hey Guys ! Ads Are The Worst, Right? But Ads Give Us Revenue To Run The Site And For Other Stuff Like Encoding Severs/Seedboxes. Please Disable Yours Ad Blocker For This Site .This Will Consider Great Help.Thanks
Home » Lucy 2014 1080p Bluray Dual Audio Hin-DTS+Eng-5-1 E+A-Sub Skyler 4.1 GB Team Edm

Lucy 2014 1080p Bluray Dual Audio Hin-DTS+Eng-5-1 E+A-Sub Skyler 4.1 GB Team Edm

::: Information ::: 

General 

Format : Matroska
Format version : Version 4 / Version 2
File size : 4.08 GiB
Duration : 1 h 29 min
Overall bit rate : 6 532 kb/s
Movie name : Lucy 2014 1080p Bluray Dual Audio Hin-DTS+Eng-5.1 E+A-Sub Skyler
Encoded date : UTC 2017-11-17 11:33:49

Video 

ID : 1
Format : AVC
Format/Info : Advanced Video Codec
Format profile : [email protected]
Format settings : 1 Ref Frames
Format settings, CABAC : No
Format settings, RefFrames : 1 frame
Codec ID : V_MPEG4/ISO/AVC
Duration : 1 h 29 min
Bit rate : 5 540 kb/s
Width : 1 906 pixels
Height : 798 pixels
Frame rate mode : Constant
Frame rate : 23.976 (24000/1001) FPS
Color space : YUV
Chroma subsampling : 4:2:0
Bit depth : 8 bits
Scan type : Progressive

Audio #1 

ID : 2
Format : DTS
Format/Info : Digital Theater Systems
Codec ID : A_DTS
Duration : 1 h 29 min
Bit rate mode : Constant
Bit rate : 768 kb/s
Channel(s) : 6 channels
Channel positions : Front: L C R, Side: L R, LFE
Sampling rate : 48.0 kHz
Frame rate : 93.750 FPS (512 SPF)
Bit depth : 24 bits
Compression mode : Lossy
Delay relative to video : -5 ms
Stream size : 491 MiB (12%)
Title : ORG DTS 5.1 SKYLER
Language : Hindi

Audio #2 

ID : 3
Format : AC-3
Format/Info : Audio Coding 3
Codec ID : A_AC3
Duration : 1 h 29 min
Bit rate mode : Constant
Bit rate : 224 kb/s
Channel(s) : 6 channels
Channel positions : Front: L C R, Side: L R, LFE
Sampling rate : 48.0 kHz
Frame rate : 31.250 FPS (1536 SPF)
Bit depth : 16 bits
Compression mode : Lossy
Delay relative to video : -5 ms
Stream size : 143 MiB (3%)
Title : ORG BLURAY 5.1 SKYLER
Language : English

Text #1 

ID : 4
Format : UTF-8
Codec ID : S_TEXT/UTF8
Codec ID/Info : UTF-8 Plain Text
Duration : 1 h 23 min
Bit rate : 64 b/s
Count of elements : 678
Stream size : 39.5 KiB (0%)
Title : Skyler
Language : Arabic
Default : Yes
Forced : No

Text #2 

ID : 5
Format : UTF-8
Codec ID : S_TEXT/UTF8
Codec ID/Info : UTF-8 Plain Text
Duration : 1 h 20 min
Bit rate : 43 b/s
Count of elements : 839
Stream size : 25.5 KiB (0%)
Title : Skyler
Language : English

ss











d

GOOGLE DRIVE


DOWNLOAD LINK 

Loading...
Nov 17, 2017 - Posted by --: Skyler :-- - No Comments

Leave a Reply

Your email address will not be published.