Hey Guys ! Ads Are The Worst, Right? But Ads Give Us Revenue To Run The Site And For Other Stuff Like Encoding Severs/Seedboxes. Please Disable Yours Ad Blocker For This Site .This Will Consider Great Help.Thanks
Home » Sardaar Gabbar Singh (2016) 720p Blu-Ray x264 Hindi – [Hamza] [Team EDM] ~ 1.52 GB

Sardaar Gabbar Singh (2016) 720p Blu-Ray x264 Hindi – [Hamza] [Team EDM] ~ 1.52 GB

DVD Cover

Sardaar Gabbar Singh (2016) 720p Blu-Ray x264 Hindi – [Hamza] [Team EDM] ~ 1.52 GB

First On Net Orginal Audio

Complete name : Sardaar Gabbar Singh (2016) 720p Blu-Ray x264 Hindi – [Hamza] [Team EDM].mkv
Format : Matroska
Format version : Version 4 / Version 2
File size : 1.53 GiB
Duration : 2h 44mn
Overall bit rate : 1 330 Kbps
Movie name : Sardaar Gabbar Singh (2016) 720p Blu-Ray x264 Hindi – [Hamza] [Team EDM]
Encoded date : UTC 2016-09-02 05:12:40
Writing application : mkvmerge v8.3.0 (‘Over the Horizon’) 64bit
Writing library : libebml v1.3.1 + libmatroska v1.4.2

Video
ID : 1
Format : AVC
Format/Info : Advanced Video Codec
Format profile : [email protected]
Format settings, CABAC : Yes
Format settings, ReFrames : 4 frames
Codec ID : V_MPEG4/ISO/AVC
Duration : 2h 44mn
Bit rate : 1 200 Kbps
Width : 1 280 pixels
Height : 544 pixels
Display aspect ratio : 2.35:1
Frame rate mode : Constant
Frame rate : 23.976 (24000/1001) fps
Color space : YUV
Chroma subsampling : 4:2:0
Bit depth : 8 bits
Scan type : Progressive
Bits/(Pixel*Frame) : 0.072
Stream size : 1.38 GiB (90%)
Title : Sardaar Gabbar Singh (2016) 720p Blu-Ray x264 Hindi – [Hamza] [Team EDM] ExtraDesiMovies.Com
Writing library : x264 core 142 r2479 dd79a61

Language : English
Default : Yes
Forced : No
Color range : Limited
Color primaries : BT.709
Transfer characteristics : BT.709
Matrix coefficients : BT.709

Audio
ID : 2
Format : AAC
Format/Info : Advanced Audio Codec
Format profile : LC
Codec ID : A_AAC
Duration : 2h 44mn
Bit rate : 127 Kbps
Channel(s) : 2 channels
Channel positions : Front: L R
Sampling rate : 44.1 KHz
Frame rate : 43.066 fps (1024 spf)
Compression mode : Lossy
Stream size : 150 MiB (10%)
Title : Sardaar Gabbar Singh (2016) 720p Blu-Ray x264 Hindi – [Hamza] [Team EDM] ExtraDesiMovies.Com
Language : Hindi
Default : Yes
Forced : No

Text
ID : 3
Format : ASS
Codec ID : S_TEXT/ASS
Codec ID/Info : Advanced Sub Station Alpha
Duration : 2h 39mn
Bit rate : 0 bps
Count of elements : 6
Compression mode : Lossless
Stream size : 240 Bytes (0%)
Title : Sardaar Gabbar Singh (2016) 720p Blu-Ray x264 Hindi – [Hamza] [Team EDM] ExtraDesiMovies.Com
Language : English
Default : Yes
Forced : No


Sample


 

Google Drive High Speed Downloads

 

Loading...
Sep 4, 2016 - Posted by Admin - No Comments

Leave a Reply

Your email address will not be published.