Hey Guys ! Ads Are The Worst, Right? But Ads Give Us Revenue To Run The Site And For Other Stuff Like Encoding Severs/Seedboxes. Please Disable Yours Ad Blocker For This Site .This Will Consider Great Help.Thanks
Home » Spider Man Homecoming 2017 720p BluRay Dual Audio ORG AAC Hin+Eng DD2.0 Arb+Eng Sub Skyler TEAM EDM 1.1 GB

Spider Man Homecoming 2017 720p BluRay Dual Audio ORG AAC Hin+Eng DD2.0 Arb+Eng Sub Skyler TEAM EDM 1.1 GB

Spider-Man: Homecoming (2017)
133 min|Action, Adventure, Sci-Fi|July 7, 2017
7.6Rating: 7.6 / 10 from 238,425 users
Peter Parker balances his life as an ordinary high school student in Queens with his superhero alter-ego Spider-Man, and finds himself on the trail of a new menace prowling the skies of New York City.

General 

Format                                   : Matroska
Format version                           : Version 4 / Version 2
File size                                : 1.10 GiB
Duration                                 : 2 h 13 min
Overall bit rate                         : 1 177 kb/s
Movie name                               : Spider Man Homecoming 2017 1080p BluRay Dual Audio ORG Hin+Eng DD2.0 Arb+Eng Sub Skyler

Video 

ID                                       : 1
Format                                   : AVC
Format/Info                              : Advanced Video Codec
Format settings                          : CABAC / 4 Ref Frames
Format settings, CABAC                   : Yes
Format settings, RefFrames               : 4 frames
Codec ID                                 : V_MPEG4/ISO/AVC
Duration                                 : 2 h 13 min
Bit rate                                 : 900 kb/s
Width                                    : 1 280 pixels
Height                                   : 534 pixels
Display aspect ratio                     : 2.40:1
Original display aspect ratio            : 2.40:1
Frame rate mode                          : Constant
Frame rate                               : 23.976 (24000/1001) FPS
Color space                              : YUV
Chroma subsampling                       : 4:2:0
Bit depth                                : 8 bits
Scan type                                : Progressive
Bits/(Pixel*Frame)                       : 0.055
Stream size                              : 859 MiB (76%)

Audio #1 

ID                                       : 2
Format                                   : AAC
Format/Info                              : Advanced Audio Codec
Format profile                           : LC
Codec ID                                 : A_AAC-2
Duration                                 : 2 h 13 min
Bit rate                                 : 149 kb/s
Channel(s)                               : 2 channels
Channel positions                        : Front: L R
Sampling rate                            : 44.1 kHz
Frame rate                               : 43.066 FPS (1024 SPF)
Compression mode                         : Lossy
Delay relative to video                  : -43 ms
Stream size                              : 142 MiB (13%)
Title                                    : ORG DD2.0 SKYLER
Language                                 : Hindi
Default                                  : Yes
Forced                                   : No

Audio #2 

ID                                       : 3
Format                                   : AAC
Format/Info                              : Advanced Audio Codec
Format profile                           : LC
Codec ID                                 : A_AAC-2
Duration                                 : 2 h 13 min
Bit rate                                 : 126 kb/s
Channel(s)                               : 2 channels
Channel positions                        : Front: L R
Sampling rate                            : 48.0 kHz
Frame rate                               : 46.875 FPS (1024 SPF)
Compression mode                         : Lossy
Delay relative to video                  : -43 ms
Stream size                              : 120 MiB (11%)
Title                                    : ORG DD2.0 SKYLER
Language                                 : English
Default                                  : No
Forced                                   : No

Text #1 

ID                                       : 4
Format                                   : UTF-8
Codec ID                                 : S_TEXT/UTF8
Codec ID/Info                            : UTF-8 Plain Text
Duration                                 : 2 h 13 min
Bit rate                                 : 96 b/s
Count of elements                        : 1503
Stream size                              : 94.2 KiB (0%)
Title                                    : Skyler
Language                                 : Arabic
Default                                  : No
Forced                                   : No

Text #2 

ID                                       : 5
Format                                   : PGS
Muxing mode                              : zlib
Codec ID                                 : S_HDMV/PGS
Codec ID/Info                            : Picture based subtitle format used on BDs/HD-DVDs
Duration                                 : 24 s 900 ms
Bit rate                                 : 43.0 kb/s
Count of elements                        : 14
Stream size                              : 131 KiB (0%)
Title                                    : English-PGS Skyler
Language                                 : English
Default                                  : Yes
Forced                                   : No

 ss
 








d

GOOGLE DRIVE


DOWNLOAD LINK

Loading...
Nov 4, 2017 - Posted by --: Skyler :-- - No Comments

Leave a Reply

Your email address will not be published.