Hey Guys ! Ads Are The Worst, Right? But Ads Give Us Revenue To Run The Site And For Other Stuff Like Encoding Severs/Seedboxes. Please Disable Yours Ad Blocker For This Site .This Will Consider Great Help.Thanks
Home » Stardust 2007 1080p BRrip Dual Audio Hin 2.0 +Eng 5.1 Esub Skyler 3.3 GB Team Edm

Stardust 2007 1080p BRrip Dual Audio Hin 2.0 +Eng 5.1 Esub Skyler 3.3 GB Team Edm

Stardust (2007)
127 min|Adventure, Family, Fantasy, Romance|August 10, 2007
7.7Rating: 7.7 / 10 from 225,794 users
In a countryside town bordering on a magical land, a young man makes a promise to his beloved that he'll retrieve a fallen star by venturing into the magical realm.

General 

Format : Matroska
Format version : Version 4 / Version 2
File size : 3.22 GiB
Duration : 2 h 7 min
Overall bit rate : 3 615 kb/s
Movie name : Stardust 2007 1080p BRrip Dual Audio Hin+Eng Esub Skyler
Encoded date : UTC 2017-12-05 11:17:44
Writing application : mkvmerge v18.0.0 (‘Apricity’) 32-bit
Writing library : libebml v1.3.5 + libmatroska v1.4.8

Video 

ID : 1
Format : AVC
Format/Info : Advanced Video Codec
Format profile : [email protected]
Format settings, CABAC : No
Format settings, RefFrames : 4 frames
Codec ID : V_MPEG4/ISO/AVC
Duration : 2 h 7 min
Bit rate : 3 000 kb/s
Width : 1 920 pixels
Height : 908 pixels
Display aspect ratio : 2.115
Frame rate mode : Constant
Frame rate : 23.976 (23976/1000) FPS
Color space : YUV
Chroma subsampling : 4:2:0
Bit depth : 8 bits
Scan type : Progressive
Bits/(Pixel*Frame) : 0.072
Stream size : 2.68 GiB (83%)
Title : Stardust 2007 1080p Bluray

Audio #1 

ID : 2
Format : AAC
Format/Info : Advanced Audio Codec
Format profile : LC
Codec ID : A_AAC
Duration : 2 h 7 min
Bit rate : 165 kb/s
Channel(s) : 2 channels
Channel positions : Front: L R
Sampling rate : 48.0 kHz
Frame rate : 46.875 FPS (1024 SPF)
Compression mode : Lossy
Delay relative to video : -5 ms
Stream size : 151 MiB (5%)
Title : Org 2.0 Skyler
Language : Hindi
Default : No
Forced : No

Audio #2 

ID : 3
Format : AC-3
Format/Info : Audio Coding 3
Format settings, Endianness : Big
Codec ID : A_AC3
Duration : 2 h 7 min
Bit rate mode : Constant
Bit rate : 448 kb/s
Channel(s) : 6 channels
Channel positions : Front: L C R, Side: L R, LFE
Sampling rate : 48.0 kHz
Frame rate : 31.250 FPS (1536 SPF)
Bit depth : 16 bits
Compression mode : Lossy
Delay relative to video : -5 ms
Stream size : 409 MiB (12%)
Title : Bluray 5.1 Skyler
Language : English
Service kind : Complete Main
Default : Yes
Forced : No

Text 

ID : 4
Format : UTF-8
Codec ID : S_TEXT/UTF8
Codec ID/Info : UTF-8 Plain Text
Duration : 2 h 0 min
Bit rate : 51 b/s
Count of elements : 1221
Stream size : 45.1 KiB (0%)
Title : Bluray
Language : English
Default : No
Forced : No

ss
















d


TORRENT


GOOGLE DRIVE


DOWNLOAD LINK


Loading...
Dec 5, 2017 - Posted by --: Skyler :-- - No Comments

Leave a Reply

Your email address will not be published.