Hey Guys ! Ads Are The Worst, Right? But Ads Give Us Revenue To Run The Site And For Other Stuff Like Encoding Severs/Seedboxes. Please Disable Yours Ad Blocker For This Site .This Will Consider Great Help.Thanks
Home » The Dilemma 2011 720p Esub BluRay Dual Audio English Hindi GOPISAHI 618 MB

The Dilemma 2011 720p Esub BluRay Dual Audio English Hindi GOPISAHI 618 MB

The Dilemma (2011)
111 min|Comedy, Drama|January 14, 2011
5.3Rating: 5.3 / 10 from 46,050 users
A man discovers that his best friend's wife is having an affair.

Format : Matroska
Format version : Version 4 / Version 2
File size : 618 MiB
Duration : 1 h 51 min
Overall bit rate : 775 kb/s
Movie name : The Dilemma 2011

Video
Format : AVC
Codec ID : V_MPEG4/ISO/AVC
Duration : 1 h 51 min
Bit rate : 600 kb/s
Width : 1 280 pixels
Height : 544 pixels
Display aspect ratio : 2.35:1
Frame rate mode : Constant
Frame rate : 23.976 (24000/1001) FPS
Stream size : 479 MiB (77%)
Writing library : x264

Audio #1
Format : AAC
Duration : 1 h 51 min
Bit rate : 85.2 kb/s
Channel(s) : 6 channels
Channel positions : Front: L C R, Side: L R, LFE
Sampling rate : 44.1 kHz
Frame rate : 43.066 FPS (1024 SPF)
Stream size : 68.0 MiB (11%)
Language : English

Audio #2
Format : AAC
Duration : 1 h 51 min
Bit rate : 87.0 kb/s
Channel(s) : 6 channels
Channel positions : Front: L C R, Side: L R, LFE
Sampling rate : 44.1 kHz
Frame rate : 43.066 FPS (1024 SPF)
Stream size : 69.3 MiB (11%)
Language : Hindi

Text
Language : English

ss


d


TORRENT


GOOGLE DRIVE


DOWNLOAD LINK


Loading...
Nov 23, 2017 - Posted by --: Skyler :-- - No Comments

Leave a Reply

Your email address will not be published.