Hey Guys ! Ads Are The Worst, Right? But Ads Give Us Revenue To Run The Site And For Other Stuff Like Encoding Severs/Seedboxes. Please Disable Yours Ad Blocker For This Site .This Will Consider Great Help.Thanks
Home » The League Of Extraordinary Gentlemen 1080p Bdrip Dual Audio ORG [Hin2.0+Eng5.1] Esub Skyler Team Edm 3.6 GB

The League Of Extraordinary Gentlemen 1080p Bdrip Dual Audio ORG [Hin2.0+Eng5.1] Esub Skyler Team Edm 3.6 GB

The League of Extraordinary Gentlemen (2003)
110 min|Action, Adventure, Fantasy, Sci-Fi|July 11, 2003
5.8Rating: 5.8 / 10 from 149,760 users
In an alternate Victorian Age world, a group of famous contemporary fantasy, science fiction, and adventure characters team up on a secret mission.
 General 

Format                                   : Matroska
Format version                           : Version 4 / Version 2
File size                                : 3.59 GiB
Duration                                 : 1 h 50 min
Overall bit rate                         : 4 663 kb/s

Video 

ID                                       : 1
Format                                   : MPEG-4 Visual
Codec ID                                 : V_MPEG4/ISO/ASP
Codec ID/Info                            : Advanced Simple Profile
Duration                                 : 1 h 50 min
Bit rate                                 : 4 117 kb/s
Width                                    : 1 920 pixels
Height                                   : 800 pixels
Display aspect ratio                     : 2.40:1
Frame rate mode                          : Constant
Frame rate                               : 23.976 (24000/1001) FPS
Color space                              : YUV
Chroma subsampling                       : 4:2:0
Bit depth                                : 8 bits
Scan type                                : Progressive
Compression mode                         : Lossy

Audio #1 

ID                                       : 2
Format                                   : AC-3
Format/Info                              : Audio Coding 3
Mode                                     : Dolby Digital
Format settings, Endianness              : Big
Codec ID                                 : A_AC3
Duration                                 : 1 h 50 min
Bit rate mode                            : Constant
Bit rate                                 : 224 kb/s
Channel(s)                               : 2 channels
Channel positions                        : Front: L R
Sampling rate                            : 44.1 kHz
Frame rate                               : 28.711 FPS (1536 SPF)
Bit depth                                : 16 bits
Compression mode                         : Lossy
Delay relative to video                  : -5 ms
Stream size                              : 176 MiB (5%)
Title                                    : ORG DD2.0 Skyler
Language                                 : Hindi
Service kind                             : Complete Main

Audio #2 

ID                                       : 3
Format                                   : AC-3
Format/Info                              : Audio Coding 3
Format settings, Endianness              : Big
Codec ID                                 : A_AC3
Duration                                 : 1 h 50 min
Bit rate mode                            : Constant
Bit rate                                 : 320 kb/s
Channel(s)                               : 6 channels
Channel positions                        : Front: L C R, Side: L R, LFE
Sampling rate                            : 48.0 kHz
Frame rate                               : 31.250 FPS (1536 SPF)
Bit depth                                : 16 bits
Compression mode                         : Lossy
Delay relative to video                  : -5 ms
Stream size                              : 252 MiB (7%)
Title                                    : ORG 5.1 Bluray Skyler
Language                                 : English
Service kind                             : Complete Main
Default                                  : Yes

Text 

ID                                       : 4
Format                                   : UTF-8
Codec ID                                 : S_TEXT/UTF8
Codec ID/Info                            : UTF-8 Plain Text
Duration                                 : 1 h 40 min
Bit rate                                 : 38 b/s
Count of elements                        : 851
Stream size                              : 28.3 KiB (0%)
Title                                    : Skyler
Language                                 : English
Default                                  : Yes
Forced                                   : No

ss
 







d

DOWNLOAD LINK

Loading...
Nov 3, 2017 - Posted by --: Skyler :-- - No Comments

Leave a Reply

Your email address will not be published.