Hey Guys ! Ads Are The Worst, Right? But Ads Give Us Revenue To Run The Site And For Other Stuff Like Encoding Severs/Seedboxes. Please Disable Yours Ad Blocker For This Site .This Will Consider Great Help.Thanks
Home » The Message 1977 1080p BRrip Dual Audio Hin-2.0+Eng-5.1 Skyler Team Edm 4.40 GB

The Message 1977 1080p BRrip Dual Audio Hin-2.0+Eng-5.1 Skyler Team Edm 4.40 GB

The Message (1976)
177 min|Adventure, Biography, Drama, History, War|July 8, 1977
8.3Rating: 8.3 / 10 from 37,374 users
This epic historical drama chronicles the life and times of Muhammad and serves as an introduction to early Islamic history.

General 

Format                                   : Matroska
Format version                           : Version 4 / Version 2
File size                                : 4.40 GiB
Duration                                 : 2 h 58 min
Overall bit rate                         : 3 536 kb/s

Video 

ID                                       : 1
Format                                   : AVC
Format/Info                              : Advanced Video Codec
Format profile                           : [email protected]
Format settings, CABAC                   : No
Format settings, RefFrames               : 1 frame
Codec ID                                 : V_MPEG4/ISO/AVC
Duration                                 : 2 h 58 min
Bit rate                                 : 2 670 kb/s
Width                                    : 1 920 pixels
Height                                   : 1 080 pixels
Display aspect ratio                     : 16:9
Frame rate mode                          : Constant
Frame rate                               : 23.976 (23976/1000) FPS
Color space                              : YUV
Chroma subsampling                       : 4:2:0
Bit depth                                : 8 bits
Scan type                                : Progressive
Bits/(Pixel*Frame)                       : 0.054
Stream size                              : 3.32 GiB (76%)

Audio #1 

ID                                       : 2
Format                                   : AC-3
Format/Info                              : Audio Coding 3
Format settings, Endianness              : Big
Codec ID                                 : A_AC3
Duration                                 : 2 h 58 min
Bit rate mode                            : Constant
Bit rate                                 : 224 kb/s
Channel(s)                               : 2 channels
Channel positions                        : Front: L R
Sampling rate                            : 48.0 kHz
Frame rate                               : 31.250 FPS (1536 SPF)
Bit depth                                : 16 bits
Compression mode                         : Lossy
Delay relative to video                  : -5 ms
Stream size                              : 285 MiB (6%)
Title                                    : 2.0 Skyler
Language                                 : Hindi
Service kind                             : Complete Main
Default                                  : No
Forced                                   : No

Audio #2 

ID                                       : 3
Format                                   : AC-3
Format/Info                              : Audio Coding 3
Format settings, Endianness              : Big
Codec ID                                 : A_AC3
Duration                                 : 2 h 58 min
Bit rate mode                            : Constant
Bit rate                                 : 640 kb/s
Channel(s)                               : 6 channels
Channel positions                        : Front: L C R, Side: L R, LFE
Sampling rate                            : 48.0 kHz
Frame rate                               : 31.250 FPS (1536 SPF)
Bit depth                                : 16 bits
Compression mode                         : Lossy
Delay relative to video                  : -5 ms
Stream size                              : 816 MiB (18%)
Title                                    : 5.1 Bluray skyler
Language                                 : English
Service kind                             : Complete Main
Default                                  : Yes
Forced                                   : No

ss









d


TORRENT


GOOGLE DRIVE


DOWNLOAD LINK


Loading...
Dec 1, 2017 - Posted by --: Skyler :-- - No Comments

Leave a Reply

Your email address will not be published.