Hey Guys ! Ads Are The Worst, Right? But Ads Give Us Revenue To Run The Site And For Other Stuff Like Encoding Severs/Seedboxes. Please Disable Yours Ad Blocker For This Site .This Will Consider Great Help.Thanks
Home » Valerian and the City of a Thousand Planets 2017 Dual Audio BluRay 1080p Hin+Eng Hon3y 4.2 GB

Valerian and the City of a Thousand Planets 2017 Dual Audio BluRay 1080p Hin+Eng Hon3y 4.2 GB

Valerian and the City of a Thousand Planets (2017)
137 min|Action, Adventure, Fantasy, Sci-Fi|July 21, 2017
6,6Rating: 6,6 / 10 from 71 771 users
A dark force threatens Alpha, a vast metropolis and home to species from a thousand planets. Special operatives Valerian and Laureline must race to identify the marauding menace and safeguard not just Alpha, but the future of the universe.

Format : Matroska
Format version : Version 4 / Version 2
File size : 4.22 GiB
Duration : 2 h 17 min
Overall bit rate : 4 406 kb/s

Video
ID : 1
Format : AVC
Format/Info : Advanced Video Codec
Format profile : [email protected]
Format settings, CABAC : Yes
Format settings, RefFrames : 5 frames
Codec ID : V_MPEG4/ISO/AVC
Duration : 2 h 17 min
Bit rate : 3 412 kb/s
Width : 1 920 pixels
Height : 800 pixels
Display aspect ratio : 2.40:1
Frame rate mode : Constant
Frame rate : 23.976 (24000/1001) FPS

Audio #1
ID : 2
Format : AC-3
Format/Info : Audio Coding 3
Format settings, Endianness : Big
Codec ID : A_AC3
Duration : 2 h 16 min
Bit rate mode : Constant
Bit rate : 224 kb/s
Channel(s) : 6 channels
Channel positions : Front: L C R, Side: L R, LFE
Sampling rate : 48.0 kHz
Frame rate : 31.250 FPS (1536 SPF)
Bit depth : 16 bits
Compression mode : Lossy
Delay relative to video : 21 s 300 ms
Stream size : 219 MiB (5%)
Language : Hindi

Audio #2
ID : 3
Format : DTS
Format/Info : Digital Theater Systems
Mode : 16
Format settings, Endianness : Big
Codec ID : A_DTS
Duration : 2 h 17 min
Bit rate mode : Constant
Bit rate : 768 kb/s
Channel(s) : 6 channels
Channel positions : Front: L C R, Side: L R, LFE
Sampling rate : 48.0 kHz
Frame rate : 93.750 FPS (512 SPF)
Bit depth : 24 bits
Compression mode : Lossy
Stream size : 753 MiB (17%)
Language : English

Text #1
ID : 4
Format : UTF-8
Codec ID : S_TEXT/UTF8
Codec ID/Info : UTF-8 Plain Text
Duration : 2 h 13 min
Bit rate : 63 b/s
Count of elements : 1906
Stream size : 62.1 KiB (0%)
Language : English
Default : Yes
Forced : No

ss

d


TORRENT


GOOGLE DRIVE


DOWNLOAD LINK


Loading...
Dec 5, 2017 - Posted by --: Skyler :-- - No Comments

Leave a Reply

Your email address will not be published.