Hey Guys ! Ads Are The Worst, Right? But Ads Give Us Revenue To Run The Site And For Other Stuff Like Encoding Severs/Seedboxes. Please Disable Yours Ad Blocker For This Site .This Will Consider Great Help.Thanks
Home » Wanted 2009 Hindi 1080p HD DTS-HDMA Esub Skyler Team Edm 6.9 GB

Wanted 2009 Hindi 1080p HD DTS-HDMA Esub Skyler Team Edm 6.9 GB

Wanted (2009)
147 min|Action, Crime, Thriller|September 25, 2009
6.6Rating: 6.6 / 10 from 15,034 users
Radhe is a ruthless gangster who will kill anyone for money. He is attracted towards Jhanvi, a middle class girl, who does not approve of his work and wants him to change.

General 

Format : Matroska
Format version : Version 4 / Version 2
File size : 6.95 GiB
Duration : 2 h 33 min
Overall bit rate : 6 482 kb/s

Video 

ID : 1
Format : MPEG-4 Visual
Format profile : [email protected]
Format settings, BVOP : No
Format settings, QPel : No
Format settings, GMC : No warppoints
Format settings, Matrix : Default (H.263)
Codec ID : V_MPEG4/ISO/ASP
Codec ID/Info : Advanced Simple Profile
Duration : 2 h 33 min
Bit rate : 4 311 kb/s
Width : 1 920 pixels
Height : 818 pixels
Display aspect ratio : 2.35:1
Frame rate mode : Constant
Frame rate : 23.976 (24000/1001) FPS
Color space : YUV
Chroma subsampling : 4:2:0
Bit depth : 8 bits
Scan type : Progressive
Compression mode : Lossy
Bits/(Pixel*Frame) : 0.114
Stream size : 4.62 GiB (66%)
Title : Wanted 2009 Hindi
Writing library : Lavc57.25.0
Language : Hindi

Audio 

ID : 2
Format : DTS
Format/Info : Digital Theater Systems
Format profile : MA / Core
Mode : 16
Format settings, Endianness : Big
Codec ID : A_DTS
Duration : 2 h 33 min
Bit rate mode : Variable / Constant
Bit rate : 2 161 kb/s / 1 509 kb/s
Channel(s) : 6 channels
Channel positions : Front: L C R, Side: L R, LFE
Sampling rate : 48.0 kHz
Frame rate : 93.750 FPS (512 SPF)
Bit depth : 16 bits
Compression mode : Lossless / Lossy
Delay relative to video : -21 ms
Stream size : 2.32 GiB (33%)
Title : DTS 6ch Skyler
Language : Hindi
Default : Yes
Forced : No

Text 

ID : 3
Format : PGS
Muxing mode : zlib
Codec ID : S_HDMV/PGS
Codec ID/Info : Picture based subtitle format used on BDs/HD-DVDs
Duration : 2 h 27 min
Bit rate : 37.4 kb/s
Count of elements : 4762
Stream size : 39.3 MiB (1%)
Title : Skyler
Language : English
Default : No
Forced : N

ss















d


TORRENT


MEGA.NZ LINK


MORE DIRECT LINK 



Loading...
Nov 27, 2017 - Posted by --: Skyler :-- - No Comments

Leave a Reply

Your email address will not be published.